#TITLE:Ice Climber;
#SUBTITLE:v2;
#ARTIST:Bogdan Raczynski;
#TITLETRANSLIT:;
#SUBTITLETRANSLIT:;
#ARTISTTRANSLIT:;
#CREDIT:;
#BANNER:bglogo.png;
#BACKGROUND:background-bg.png;
#LYRICSPATH:;
#CDTITLE:;
#MUSIC:BOGDAN_RACZYNSKI___ICE_CLIM3.ogg;
#OFFSET:-0.020;
#SAMPLESTART:37.440;
#SAMPLELENGTH:12.000;
#SELECTABLE:YES;
#BPMS:0.000=95.000;
#STOPS:;
#BGCHANGES:;
// cache tags:
#FIRSTBEAT:0.000;
#LASTBEAT:181.000;
#SONGFILENAME:Songs/Music V.I.P ^_^/(Reach) Ice Climb V2/iceclimb.sm;
#HASMUSIC:1;
#HASBANNER:1;
#MUSICLENGTH:116.469;
// end cache tags

//---------------dance-single - SMANIAC----------------
#NOTES:
     dance-single:
     SMANIAC:
     Challenge:
     15:
     1.000,1.000,1.000,0.292,1.000,992.000,192.000,34.000,0.000,4.000:

1001
0000
1000
0001
0110
1000
1000
1000
0021
0000
0000
0000
0000
0000
0030
0000
,
1001
0000
0001
1000
0110
0001
0001
0001
1200
0000
0000
0000
0000
0000
0300
0000
,
1001
0000
0100
0010
1100
0010
0010
0010
2001
0000
0000
0001
0000
0010
3010
0000
,
1001
0000
0010
0100
0011
1000
1000
1000
0201
0000
0000
0001
0000
1000
1300
0000
,
0011
0000
0011
0000
1100
0000
0000
0000
1000
0100
0000
1100
0000
0011
0000
0000
1000
0100
0000
0110
0000
1001
0000
0000
1000
0100
0000
0011
0000
1100
0000
0000
,
0001
0010
0000
1100
0000
0101
0000
0000
1000
0100
0000
1001
0000
0110
0000
0000
0001
0010
0000
0101
0000
1010
0000
0000
1000
0100
0000
0011
0000
1100
0000
0000
,
0001
0010
0000
1100
0000
0101
0000
0000
1000
0100
0000
0110
0000
1001
0000
0000
2000
0001
0001
0001
0001
3001
0000
0000
0001
0010
0000
1001
0000
0110
0000
0000
,
0001
0010
0000
1100
0000
1001
0000
0000
0010
0100
0000
0011
0000
1100
0000
0000
2000
0010
0010
0010
0010
3010
0000
0000
0001
0010
0000
1100
0000
1100
0000
0000
,
0011
0011
0000
1001
0000
1001
0000
0100
0000
1000
0000
0001
0000
1000
0000
0020
0000
1000
1000
1000
1000
1030
0000
0000
1001
0000
0110
0000
0011
0000
1001
0000
,
0000
0100
0100
0000
0011
0000
1001
0000
0100
0000
0001
0000
0100
0000
1000
0000
0002
0000
1000
1000
1000
1000
1003
0000
1001
0000
0110
0000
0101
0000
1010
0000
,
0000
0001
0001
0000
1100
0000
1010
0000
0001
0000
1000
0000
0010
0000
0100
0000
2000
0000
0001
0001
0001
0001
3001
0000
0101
0000
1010
0000
1100
0000
1001
0000
,
0000
1000
1000
0000
0011
0000
1001
0000
1000
0000
0010
0000
0001
0000
1000
0000
0002
0000
1000
1000
1000
1000
1003
0000
0011
0000
1100
0000
0110
0000
1001
0000
,
0000
0110
2002
0000
0000
0000
3103
0000
1000
0000
1001
0000
0001
0000
0010
0000
0002
0000
1000
1000
1000
1000
1003
0000
1100
0000
1100
0000
0110
0000
1001
0000
,
0000
0000
2000
0000
0000
0000
3001
0000
0100
0000
1010
0000
1000
0000
1000
0000
2000
0000
0001
0001
0001
0001
3001
0000
0110
0000
1001
0000
0011
0000
1001
0000
,
0000
0000
1000
0100
0010
0001
0010
0100
0001
1000
0010
0100
1000
0100
0010
0100
0010
0100
1000
0100
0010
0001
0110
1000
0001
0010
0001
0100
0001
0010
0001
1000
,
0001
0010
0100
1000
0100
1000
0010
1000
0001
1000
0010
1000
0100
1000
0010
1000
0001
1000
0010
1000
0100
1000
0010
1000
0100
1000
0001
1000
0010
1000
0100
1000
,
0010
0100
1000
0100
0010
0001
0010
0001
0100
0001
1000
0001
0110
1000
0100
0010
0001
0010
0100
0010
0100
0010
0001
0010
0100
1000
0100
0010
0100
0001
1000
0010
,
0100
0001
0010
0100
0001
0010
0001
0100
0001
1000
0001
0010
0100
1000
0100
0010
1000
0100
1000
0010
1000
0001
1000
0100
0010
0001
0010
0100
1000
0001
1000
0110
,
1000
0011
1000
0110
1000
0011
1000
0100
0010
0001
1000
0001
0110
0001
1100
0001
0110
0001
1100
0001
0110
1000
0100
0010
0001
0010
0100
1000
0110
0001
0110
1000
,
0110
0001
0110
1000
0100
1000
0110
0001
0010
0001
0110
1000
0001
1000
0001
0110
1000
0010
0100
0001
1000
0010
0100
0001
1010
0100
0010
0001
1010
0001
0010
0100
,
0011
0100
0010
0001
1100
0001
0010
0100
1000
0011
1000
0100
0010
0001
1100
0001
0010
0100
1000
0011
1000
0100
0010
0001
1100
0001
0010
0100
1000
0001
0100
0010
,
0001
0010
0100
1000
0001
1000
0100
0010
0001
0010
0100
1000
0001
1000
0100
0010
0001
0010
0100
1000
0001
1000
0100
0010
0001
0010
0100
0010
0100
0010
0001
0010
,
0100
0010
0100
1000
0100
0010
0100
0010
0001
0010
0100
0010
0100
1000
0100
0001
0010
1000
0100
0001
0010
1000
0100
0001
0010
0100
0010
1000
0010
0100
0001
1000
,
0010
0000
0000
1000
0100
0000
0011
0000
1100
0000
0010
0000
0001
0000
0100
0000
1000
0000
0200
0000
0001
0001
0001
0001
0301
0000
1100
0000
0110
0000
0101
0000
,
0110
0000
0000
1000
0100
0000
0011
0000
1100
0000
0010
0000
0001
0000
0010
0000
1000
0000
0200
0000
0001
0001
0001
0001
0301
0000
0110
0000
1001
0000
0110
0000
,
1001
0000
0000
1000
0100
0000
0101
0000
1001
0000
0010
0000
1000
0000
0100
0000
0010
0000
0002
0000
1000
1000
1000
1000
1003
0000
1100
0000
1010
0000
1001
0000
,
1010
0000
0000
0000
1100
0000
1100
0000
1100
0000
1100
0000
1001
0000
1010
0000
1001
0000
2100
0000
0001
0001
0001
0001
3001
0000
0110
0000
0101
0000
0011
0000
,
1010
0000
0000
0000
0110
0000
0101
0000
1010
0000
0110
0000
1001
0000
0110
0000
0001
0000
0020
0000
1000
1000
1000
1000
1030
0000
1100
0000
1001
0000
0101
0000
,
1001
0000
0000
0000
1200
0000
0000
0000
0301
0000
0001
0000
1001
1001
2002
0000
3113
0110
2002
0000
3003
0100
1000
0100
1000
0100
0011
1100
0000
0110
0000
0000
,
0000
1100
0000
0000
0000
0001
1000
0001
1000
0001
1000
0001
2002
0000
3103
0000
0100
1000
0100
0000
0000
1000
0100
1000
0100
1000
0000
1001
0000
0110
0000
0000
,
0000
0101
0000
0000
0000
1000
1000
1000
1000
1000
1000
1000
1000
1000
0100
0010
0001
0010
0100
1000
0100
0010
0010
0010
0010
0010
0010
0010
0100
1000
0100
0010
,
0001
0010
0100
1000
0001
1000
0011
1100
0011
1100
0011
1100
0011
1100
0010
0001
0010
0100
1000
0100
0010
0001
0001
0001
0001
1001
0000
0100
1000
0100
1000
0100
,
0010
0001
1000
0001
1000
0001
0110
1001
0110
1001
0110
1001
0110
1001
1000
0100
0010
0001
0010
0100
1000
0100
0100
0100
0100
0100
1001
0000
0100
1000
0100
0010
,
0001
0010
0100
1000
0100
0010
0001
0010
1000
0100
1000
0010
1000
0010
0100
0001
0100
0010
1000
0010
0100
0001
0100
0100
0100
0100
1001
0000
0100
1000
0100
1000
,
0100
0010
0001
0010
0100
1000
0010
0100
0001
1000
0010
0100
0001
1000
0010
0100
0001
1000
0001
1000
0001
1000
0001
1000
0001
1000
0001
1000
0001
1000
0001
1000
,
0010
0100
0001
1000
0010
0100
0001
0010
0100
1000
0010
0100
0001
0010
0100
1000
0100
0010
0001
1000
0001
0010
0100
1000
0001
1000
0100
0010
0001
1000
0001
0010
,
0100
1000
0001
1000
0100
0010
0001
1000
0010
0100
0001
1000
0010
0000
1001
0000
0000
0000
1100
0000
0000
0000
1000
0001
1000
0001
1100
0000
0001
1000
0001
1000
,
0010
0100
0001
1000
0010
0100
1000
0000
0000
0000
0001
0000
1001
0000
0100
0010
0001
0000
0100
0010
0001
0000
0100
0100
0100
0100
0100
1001
0000
0100
1000
0100
,
0010
0001
0010
0100
1000
0100
0020
0000
0000
0000
0000
0000
0000
0000
0000
0000
0130
0000
1000
0100
0000
0001
0100
0100
0100
0100
0011
0000
1000
1000
1000
1000
,
1000
1000
1000
1000
1000
1000
2000
0000
0000
0000
0000
0000
0000
0000
0000
0000
3001
0000
0010
0100
0000
1000
0001
0001
0001
0001
1001
0000
0000
0001
1000
0001
,
1000
0001
1000
0001
1000
0001
2000
0000
0000
0000
0000
0000
0000
0000
0000
0000
0000
0001
3000
0100
1000
0000
0001
1000
1000
1000
1000
1001
0000
0100
1000
0100
,
0010
0001
0010
0100
1000
0100
0010
0002
0000
0000
0000
0000
0000
0000
0000
0000
0000
0100
0000
1000
0100
0000
1003
0010
0100
0010
0100
0011
0000
0100
1000
0100
,
1000
0100
0010
0001
0010
0100
1000
0100
0001
0100
1000
0100
0001
0100
1000
0100
0001
0100
1000
0100
0001
0100
1000
0100
0001
0100
1000
0100
0001
0100
1000
0100
,
0101
0100
0100
0100
0100
0100
0100
0200
0000
0000
0000
0000
0000
0000
0000
0000
0000
0000
0000
0000
0300
0000
0000
0000
0000
0000
0000
0000
0000
0000
0000
0000
,
1001
0000
0000
0000
0000
0000
0000
0000
2002
0000
0000
0000
0000
0000
0000
0000
0000
0000
0000
0000
0000
0000
0000
0000
3103
1000
0100
1000
0100
1000
0100
1000
,
0100
1000
0100
1000
0100
1000
0100
0010
1001
0000
0000
0000
0000
0000
0000
0000
0000
0000
0000
0000
0000
0000
0000
0000
0000
0000
0000
0000
0000
0000
0000
0000
,;

//---------------dance-single - MANIAC----------------
#NOTES:
     dance-single:
     MANIAC:
     Hard:
     10:
     1.000,1.000,0.721,0.240,1.000,818.000,84.000,28.000,0.000,2.000:

1001
0000
1000
0001
0110
1000
1000
1000
0021
0000
0000
0000
0000
0000
0030
0000
,
1001
0000
0001
1000
0110
0001
0001
0001
1200
0000
0000
0000
0000
0000
0300
0000
,
1001
0000
0100
0010
1100
0010
0010
0010
2001
0000
0000
0001
0000
0010
3010
0000
,
1001
0000
0010
0100
0011
1000
1000
1000
0201
0000
0000
0001
0000
1000
1300
0000
,
0010
0000
0010
0000
1100
0000
0000
0000
1000
0100
0000
1000
0000
0001
0000
0000
1000
0100
0000
0010
0000
0001
0000
0000
1000
0100
0000
0010
0000
0100
0000
0000
,
0001
0010
0000
0100
0000
0100
0000
0000
1000
0100
0000
1000
0000
0010
0000
0000
0001
0010
0000
0001
0000
0010
0000
0000
1000
0100
0000
0001
0000
0100
0000
0000
,
0001
0010
0000
1000
0000
0001
0000
0000
1000
0100
0000
0100
0000
0001
0000
0000
2000
0001
0000
0001
0000
3001
0000
0000
0001
0010
0000
1000
0000
0010
0000
0000
,
0001
0010
0000
1000
0000
0001
0000
0000
0010
0100
0000
0010
0000
0100
0000
0000
2000
0010
0000
0010
0000
3010
0000
0000
0001
0010
0000
0100
0000
0100
0000
0000
,
0010
0010
0000
0001
0000
1000
0000
0100
0000
1000
0000
0001
0000
1000
0000
0020
0000
1000
0000
1000
0000
1030
0000
0000
1001
0000
0110
0000
1001
0000
0110
0000
,
0000
0100
0010
0000
0001
0000
1000
0000
0100
0000
0001
0000
0100
0000
1000
0000
0002
0000
1000
0000
1000
0000
1003
0000
1001
0000
0110
0000
0101
0000
0110
0000
,
0000
0001
0010
0000
1000
0000
0010
0000
0001
0000
1000
0000
0010
0000
0100
0000
2000
0000
0001
0000
0001
0000
3001
0000
1010
0000
1001
0000
0110
0000
1001
0000
,
0000
1000
0100
0000
0010
0000
0001
0000
1000
0000
0010
0000
0001
0000
1000
0000
0002
0000
1000
0000
1000
0000
1003
0000
0011
0000
1100
0000
0110
0000
1001
0000
,
0000
0110
2002
0000
0000
0000
3103
0000
1000
0000
1000
0000
0001
0000
0010
0000
0002
0000
1000
0000
1000
0000
1003
0000
0100
0000
0100
0000
0010
0000
0001
0000
,
0000
2000
0000
3001
0100
1010
1000
1000
2000
0001
0001
3001
0110
1001
0011
1001
,
0000
1000
0100
0010
0001
0010
1000
0010
1000
0100
0010
1100
0001
1000
0001
1000
,
0001
0100
1000
0010
0001
0010
0100
0010
0001
0010
0100
0010
0100
0001
0010
0100
,
0010
1000
0010
1000
0100
1000
0010
0100
0001
0100
1000
0001
0100
0001
0100
1000
,
0100
0010
0001
1000
0001
1000
0100
0010
1000
0100
1000
0100
0010
0001
1000
0010
,
1000
0010
1000
0001
0010
1000
0010
0010
0100
0010
0100
0010
0001
0100
0100
0010
,
0100
0010
0100
0010
0100
0010
0001
1000
0010
0100
1000
0100
1000
0010
1000
0010
,
0001
0010
0100
0010
1000
0001
0010
0100
0010
1000
0001
0010
0100
0010
1000
0100
,
0001
0100
0001
0100
0001
0100
0001
0100
0001
0100
0001
0100
0001
0100
1000
0001
,
0100
0001
0100
0010
0001
0100
0001
0100
0010
0100
0010
0100
0010
0001
0010
0001
,
0010
0000
0000
1000
0100
0000
0001
0000
0100
0000
0010
0000
0001
0000
0100
0000
1000
0000
0200
0000
0001
0000
0001
0000
0301
0000
1100
0000
0110
0000
0101
0000
,
0110
0000
0000
1000
0100
0000
0010
0000
0100
0000
0010
0000
0001
0000
0010
0000
1000
0000
0200
0000
0001
0000
0001
0000
0301
0000
0110
0000
1001
0000
0110
0000
,
1001
0000
0000
1000
0100
0000
0100
0000
0001
0000
0010
0000
1000
0000
0100
0000
0010
0000
0002
0000
1000
0000
1000
0000
1003
0000
1100
0000
1010
0000
1001
0000
,
1010
0000
1100
1100
1100
1100
1001
1010
1001
2000
0001
0001
3001
0110
0101
0011
,
1010
0000
0110
0101
1010
0110
1001
0110
0001
0020
1000
1000
1030
1100
1001
0101
,
1001
0000
0000
0000
1200
0000
0300
0000
0001
0000
0001
0000
1000
0001
1000
0001
0010
0100
0000
0000
1000
0100
1000
0100
1000
0100
1000
0100
0000
0010
0000
0000
,
0000
1100
0000
0000
0000
0001
1000
0001
1000
0001
1000
0001
1000
0000
0100
0000
0100
1000
0100
0000
0000
1000
0100
1000
0100
1000
0000
1001
0000
0110
0000
0000
,
0000
0101
0000
0000
0000
1000
0001
1000
0001
1000
0001
1000
0001
1000
0100
0010
0001
0010
0100
1000
0100
0010
1000
0010
1000
0010
1000
0010
0100
1000
0100
0010
,
0001
0010
0100
1000
0001
1000
0001
1000
0001
1000
0001
1000
0001
1000
0000
0001
0010
0100
1000
0100
0010
0001
1000
0001
1000
0001
0000
0100
1000
0100
1000
0100
,
0010
0001
1000
0001
1000
0001
0010
0000
0100
0000
0010
0000
0100
0000
1000
0100
0010
0001
0010
0100
1000
0100
0001
0100
0001
0100
0001
0000
0100
1000
0100
0010
,
0001
0010
0100
1000
0100
0010
0001
0010
1000
0100
1000
0010
1000
0010
0100
0001
0100
0010
1000
0010
0100
0001
0100
1000
0100
1000
0001
0000
0100
1000
0100
1000
,
0100
0010
0001
0010
0100
1000
0010
0100
0001
1000
0010
0100
0001
1000
0010
0100
0001
1000
0001
1000
0001
1000
0001
1000
0001
1000
0001
1000
0001
1000
0001
1000
,
0010
0100
0001
1000
0010
0100
0001
0010
0100
1000
0010
0100
0001
0010
0100
1000
0100
0010
0001
1000
0001
0010
0100
1000
0001
1000
0100
0010
0001
1000
0001
0010
,
0100
1000
0001
1000
0100
0010
0001
1000
0010
0100
0001
1000
0010
0000
1001
0000
0000
0000
1100
0000
0000
0000
1000
0001
1000
0001
1100
0000
0001
1000
0001
1000
,
0010
0100
0001
1000
0010
0100
1000
0000
0000
0000
0001
0000
1001
0000
0100
0010
0001
1000
0100
0010
0001
0000
0100
0010
0100
0010
0101
0000
0000
0100
1000
0100
,
0010
0001
0010
0100
1000
0100
0020
0000
0000
0000
0000
0000
0000
0000
0000
0000
0130
0000
1000
0100
0000
0001
0100
1000
0100
1000
0010
0000
1000
0001
1000
0001
,
1000
0001
1000
0001
1000
0001
2000
0000
0000
0000
0000
0000
0000
0000
0000
0000
3001
0000
0010
0100
0000
1000
0001
1000
0001
1000
0001
0000
0000
0001
1000
0001
,
1000
0001
1000
0001
1000
0001
2000
0000
0000
0000
0000
0000
0000
0000
0000
0000
0000
0001
3000
0100
1000
0000
0000
0001
1000
0001
1000
0001
0000
0100
1000
0100
,
0010
0001
0010
0100
1000
0100
0010
0002
0000
0000
0000
0000
0000
0000
0000
0000
0000
0100
0000
1000
0100
0000
1003
0010
0100
0010
0100
0010
0000
0100
1000
0100
,
1000
0100
0010
0001
0010
0100
1000
0100
1000
0100
1000
0100
1000
0100
1000
0100
1000
0100
1000
0100
1000
0100
1000
0010
0001
0010
1000
0010
0001
0010
0001
0010
,
0001
0010
0100
1000
0100
0010
0001
1200
0000
0000
0000
0000
0000
0000
0000
0000
0000
0000
0000
0000
0000
0000
0000
0000
0000
0000
0000
0000
0300
0000
0000
0000
,
1001
0000
0000
0000
0000
0000
0000
0000
2002
0000
0000
0000
0000
0000
0000
0000
0000
0000
0000
0000
0000
0000
0000
0000
3103
1000
0100
1000
0100
1000
0100
1000
,
0100
1000
0100
1000
0100
1000
0100
0010
1001
0000
0000
0000
0000
0000
0000
0000
0000
0000
0000
0000
0000
0000
0000
0000
0000
0000
0000
0000
0000
0000
0000
0000
,;
